<?xml version="1.0" standalone="no"?>
<!DOCTYPE svg PUBLIC "-//W3C//DTD SVG 1.1//EN" "http://www.w3.org/Graphics/SVG/1.1/DTD/svg11.dtd" >
<svg xmlns="http://www.w3.org/2000/svg">
<metadata></metadata>
<defs>
<font id="playregular" horiz-adv-x="1187" >
<font-face units-per-em="2048" ascent="1638" descent="-410" />
<missing-glyph horiz-adv-x="471" />
<glyph horiz-adv-x="2048" />
<glyph horiz-adv-x="2048" />
<glyph unicode="&#xd;" horiz-adv-x="681" />
<glyph unicode=" "  horiz-adv-x="471" />
<glyph unicode="&#x09;" horiz-adv-x="471" />
<glyph unicode="&#xa0;" horiz-adv-x="471" />
<glyph unicode="!" horiz-adv-x="573" d="M164 1329h246l-72 -962h-102zM168 0v221h238v-221h-238z" />
<glyph unicode="&#x22;" horiz-adv-x="907" d="M174 879v450h176v-450h-176zM557 879v450h176v-450h-176z" />
<glyph unicode="#" d="M123 408v127h225l53 260h-278v127h303l76 387h135l-76 -387h172l76 387h135l-76 -387h197v-127h-223l-51 -260h274v-127h-299l-80 -408h-135l80 408h-172l-80 -408h-135l80 408h-201zM483 535h172l54 260h-174z" />
<glyph unicode="$" d="M123 913v86q0 143 91 219t327 89v145h116v-143q135 0 330 -23v-145q-252 29 -330 30v-430h62q207 0 280.5 -74.5t73.5 -236.5v-76q0 -190 -103.5 -274t-312.5 -96v-271h-116v267q-150 0 -391 32v162q2 0 73.5 -14.5t99 -17.5t92 -9t126.5 -6v467h-60q-201 0 -279.5 81 t-78.5 238zM315 874q0 -70 50.5 -101.5t175.5 -31.5v428q-135 -8 -180.5 -46t-45.5 -117v-132zM657 131q106 6 164 41t58 115v151q0 84 -48.5 120t-173.5 36v-463z" />
<glyph unicode="%" horiz-adv-x="1751" d="M94 844v256q0 137 87 183t236.5 46t235.5 -46t86 -183v-256q0 -68 -25.5 -111t-75.5 -61.5t-98 -24.5t-122 -6t-122 6t-99.5 24.5t-77 61.5t-25.5 111zM254 852q0 -66 39 -85t125 -19t124 19t38 85v256q0 74 -38 94.5t-124 20.5q-88 0 -126 -20.5t-38 -94.5v-256z M473 -20l664 1372h157l-663 -1372h-158zM1012 182v256q0 137 87 183.5t236.5 46.5t235.5 -46.5t86 -183.5v-256q0 -68 -25.5 -110.5t-76 -61t-98.5 -24.5t-121.5 -6t-122 6t-99.5 24.5t-76.5 61.5t-25.5 110zM1171 190q0 -66 39 -85t125 -19t124 19t38 85v256q0 74 -38 94.5 t-124 20.5q-88 0 -126 -20.5t-38 -94.5v-256z" />
<glyph unicode="&#x26;" horiz-adv-x="1302" d="M123 215v223q0 156 188 240l97 45l-80 94q-63 74 -64 141v199q0 195 340 195q137 0 279 -31v-150q-154 51 -283 52q-88 0 -125 -18.5t-37 -63.5v-152q0 -31 21 -55l495 -600q6 37 7 86v196h155v-188q0 -139 -43 -229q82 -78 123 -78h53v-121h-131q-70 0 -149 70 q-129 -90 -400 -90q-446 0 -446 235zM315 207q0 -100 269 -101h22q199 0 271 58l-396 471l-71 -31q-43 -20 -69 -62t-26 -85v-250z" />
<glyph unicode="'" horiz-adv-x="524" d="M174 879v450h176v-450h-176z" />
<glyph unicode="(" horiz-adv-x="677" d="M162 565q0 217 76.5 410.5t220.5 415.5h166q-135 -236 -210 -430.5t-75 -395.5q0 -203 76 -401.5t209 -423.5h-166q-297 442 -297 825z" />
<glyph unicode=")" horiz-adv-x="677" d="M53 -260q133 225 209 423.5t76 401.5q0 199 -75 391.5t-210 434.5h166q143 -221 220 -415t77 -411q0 -383 -297 -825h-166z" />
<glyph unicode="*" horiz-adv-x="815" d="M53 1016l47 141l265 -110l-27 282h149l-26 -282l256 110l45 -141l-275 -60l187 -217l-125 -84l-141 244l-144 -244l-123 84l193 217z" />
<glyph unicode="+" horiz-adv-x="1024" d="M123 578v137h319v340h138v-340h321v-137h-321v-342h-138v342h-319z" />
<glyph unicode="," horiz-adv-x="524" d="M80 -229l94 450h217l-192 -450h-119z" />
<glyph unicode="-" horiz-adv-x="733" d="M82 512v147h569v-147h-569z" />
<glyph unicode="." horiz-adv-x="524" d="M143 0v221h238v-221h-238z" />
<glyph unicode="/" horiz-adv-x="862" d="M20 -20l664 1372h158l-664 -1372h-158z" />
<glyph unicode="0" d="M125 319v672q0 96 27.5 165t68.5 106.5t108.5 58t124 26t138.5 5.5q84 0 141.5 -5.5t125 -26t108.5 -57t68.5 -105.5t27.5 -165v-674q0 -88 -27.5 -152.5t-69.5 -100t-107.5 -56t-125 -25.5t-141.5 -5q-84 0 -142.5 5t-125 24.5t-106.5 55t-66.5 100t-26.5 154.5z M311 309q0 -133 65.5 -171t219.5 -38t217.5 38t63.5 171v697q0 145 -64.5 185t-218.5 40q-158 0 -220.5 -40t-62.5 -185v-697z" />
<glyph unicode="1" d="M250 881v168l405 280h176v-1329h-178v1145z" />
<glyph unicode="2" d="M147 0v238q0 59 20.5 109t48.5 83t81 66.5t89 52t103 47.5l222 98q131 59 131 178v183q0 96 -60.5 126.5t-197.5 30.5q-141 0 -389 -43v144q213 39 428 39q219 0 318 -65.5t99 -223.5v-217q0 -111 -57 -168t-205 -125l-307 -141q-135 -61 -135 -181v-88h704v-143h-893z " />
<glyph unicode="3" d="M158 18v148q248 -51 407 -51q272 0 273 153v228q0 43 -23.5 70.5t-68 38.5t-79 14.5t-83.5 3.5h-256v127h221q49 0 83 3t79 14t69.5 40t24.5 74v237q0 104 -246 105q-158 0 -375 -33v141q176 18 373 19q221 0 327.5 -48.5t106.5 -173.5v-256q0 -68 -53 -107.5t-129 -51.5 v-8q47 -8 80 -17.5t68.5 -28t54 -51.5t18.5 -78v-266q0 -74 -31.5 -128t-76.5 -83.5t-115 -47t-128 -21.5t-134 -4q-166 0 -387 38z" />
<glyph unicode="4" d="M106 291v162l603 876h229v-897h143v-141h-143v-291h-170v291h-662zM270 432h498v735z" />
<glyph unicode="5" d="M178 16v148q238 -49 397 -49q121 0 181.5 34.5t60.5 118.5v264q0 43 -18.5 71t-55 39t-66.5 14t-75 3h-393v670h766v-139h-582v-404h307q76 0 140.5 -17t117 -68.5t52.5 -133.5v-303q0 -74 -27 -128t-68 -83.5t-103 -47t-116.5 -21.5t-126.5 -4q-166 0 -391 36z" />
<glyph unicode="6" d="M145 319v672q0 96 31 165t76 106.5t117.5 58t132 26t141.5 5.5q125 0 336 -19v-139q-217 27 -363 27q-160 0 -224 -40t-64 -186v-209h301q96 0 149 -3t112.5 -17t87.5 -43t46 -80t18 -129v-195q0 -111 -34.5 -182t-104 -104t-139.5 -43t-172 -10q-84 0 -140.5 5 t-120 24.5t-100 55t-61.5 100t-25 154.5zM328 309q0 -133 58 -171t210 -38t208 37t56 172v199q0 98 -50 129t-216 31h-266v-359z" />
<glyph unicode="7" d="M127 1196v133h934v-133l-508 -1196h-197l533 1196h-762z" />
<glyph unicode="8" d="M121 240v247q0 84 65.5 137.5t163.5 75.5v9q-90 20 -137 64t-47 126v207q0 57 17.5 98t62.5 77t131 53.5t215 17.5t215 -17.5t131 -53.5t62.5 -77t17.5 -98v-207q0 -82 -46 -126t-136 -64v-9q98 -23 163.5 -76t65.5 -137v-243q0 -145 -111.5 -204.5t-361.5 -59.5 q-248 0 -359.5 59t-111.5 201zM319 233q0 -74 61.5 -104.5t211 -30.5t211 30.5t61.5 104.5v248q0 51 -21.5 84t-67.5 46.5t-83 16.5t-100.5 3t-100 -3t-83 -16.5t-68 -46.5t-21.5 -84v-248zM352 881q0 -80 53.5 -108t186.5 -28t186 28t53 108v215q0 76 -55 106.5t-184 30.5 t-184.5 -31t-55.5 -106v-215z" />
<glyph unicode="9" d="M145 815v197q0 111 35 182.5t104.5 104t139.5 43t172 10.5q84 0 140.5 -5.5t120 -24.5t100 -55t61 -100.5t24.5 -154.5v-672q0 -197 -115.5 -278.5t-371.5 -81.5q-174 0 -346 22v137q190 -35 340 -35q176 0 243.5 56.5t67.5 208.5v174h-301q-96 0 -149.5 3t-112.5 17.5 t-87 43t-46.5 79.5t-18.5 129zM328 821q0 -98 50 -128.5t216 -30.5h266v360q0 133 -58.5 171t-210 38t-207.5 -37t-56 -172v-201z" />
<glyph unicode=":" horiz-adv-x="524" d="M143 0v221h238v-221h-238zM143 770v221h238v-221h-238z" />
<glyph unicode=";" horiz-adv-x="524" d="M80 -229l94 450h217l-192 -450h-119zM143 770v221h238v-221h-238z" />
<glyph unicode="&#x3c;" horiz-adv-x="1024" d="M123 563v148l778 436v-166l-618 -350l618 -338v-166z" />
<glyph unicode="=" horiz-adv-x="1024" d="M123 414v137h778v-137h-778zM123 741v138h778v-138h-778z" />
<glyph unicode="&#x3e;" horiz-adv-x="1024" d="M123 127v166l618 338l-618 350v166l778 -436v-148z" />
<glyph unicode="?" horiz-adv-x="1091" d="M123 1161v150q215 39 430 39q219 0 317.5 -65.5t98.5 -223.5v-103q0 -78 -28 -138t-69 -96t-90 -71t-90 -60.5t-68.5 -65.5t-27.5 -89v-88h-172v49q0 111 36 185.5t87 113.5t102 73t87 86t36 128v62q0 96 -61.5 126.5t-196.5 30.5q-143 0 -391 -43zM389 0v221h238v-221 h-238z" />
<glyph unicode="@" horiz-adv-x="1509" d="M123 176v629q0 117 61.5 197.5t165 117.5t196.5 51.5t195 14.5q109 0 205 -13.5t203.5 -50.5t172 -117.5t64.5 -197.5v-510q0 -100 -51 -141t-151 -41h-64q-70 0 -116 21.5t-56 53.5q-20 -45 -63 -60t-170 -15q-166 0 -235.5 56t-69.5 235v225q0 152 73.5 210t272.5 58 q201 0 263 -58.5t62 -209.5v-367q0 -29 18.5 -39t61.5 -10t59.5 9t16.5 40v567q0 74 -50 126.5t-131 76t-157 33.5t-155.5 10t-151.5 -10t-146.5 -33.5t-118.5 -76t-44 -126.5v-669q0 -68 45 -116t120.5 -71.5t147.5 -33t149 -9.5q117 0 273 19.5t211 34.5v-119 q-51 -16 -198.5 -33.5t-289.5 -17.5q-84 0 -159.5 7t-162.5 30.5t-149.5 61.5t-104.5 105.5t-42 155.5zM569 377q0 -104 32 -131t148.5 -27t149.5 29t33 129v246q0 117 -30 143.5t-152 26.5q-119 0 -150 -28t-31 -142v-246z" />
<glyph unicode="A" horiz-adv-x="1335" d="M31 0l528 1329h229l517 -1329h-207l-152 403h-569l-150 -403h-196zM428 541h469l-225 600h-19z" />
<glyph unicode="B" horiz-adv-x="1255" d="M172 0v1329h475q172 0 269.5 -34.5t127 -86t29.5 -131.5v-178q0 -82 -46 -125t-136 -63v-9q106 -18 174 -73.5t68 -141.5v-223q0 -145 -111 -204.5t-360 -59.5h-490zM371 137h291q150 0 211 30.5t61 104.5v201q0 53 -21.5 85t-67.5 45t-82 16.5t-101 3.5h-291v-486z M371 748h282q127 0 180.5 37.5t53.5 119.5v156q0 76 -55.5 106.5t-184.5 30.5h-276v-450z" />
<glyph unicode="C" horiz-adv-x="1155" d="M131 340v631q0 381 559 381q186 0 365 -39v-148q-197 49 -361 49q-78 0 -137 -9t-116.5 -32.5t-88 -73.5t-30.5 -126v-623q0 -229 380 -229q164 0 361 49v-152q-174 -38 -363 -38h-10q-559 0 -559 360z" />
<glyph unicode="D" horiz-adv-x="1390" d="M172 0v1329h528q560 0 560 -381v-588q0 -360 -558 -360h-530zM371 135h317q381 1 381 230v585q0 76 -30.5 126t-87 74t-116 33t-137.5 9h-327v-1057z" />
<glyph unicode="E" d="M172 0v1329h893v-139h-694v-434h626v-140h-626v-477h714v-139h-913z" />
<glyph unicode="F" horiz-adv-x="1146" d="M172 0v1329h913v-139h-714v-434h647v-140h-647v-616h-199z" />
<glyph unicode="G" horiz-adv-x="1363" d="M131 340v629q0 117 60.5 197.5t163 117.5t194.5 51.5t194 14.5q246 0 459 -33v-154q-78 18 -223 33.5t-231 15.5q-420 0 -420 -241v-627q0 -68 40 -116t108.5 -71.5t135 -32.5t144.5 -9q137 0 293 37v464h-312v140h496v-715q-266 -61 -490 -61q-84 0 -158.5 7 t-160.5 30.5t-148.5 61.5t-103.5 105.5t-41 155.5z" />
<glyph unicode="H" horiz-adv-x="1447" d="M172 0v1329h199v-573h706v573h199v-1329h-199v616h-706v-616h-199z" />
<glyph unicode="I" horiz-adv-x="542" d="M172 0v1329h199v-1329h-199z" />
<glyph unicode="J" horiz-adv-x="825" d="M41 2v133q125 -33 219 -33q115 0 155 34t40 149v1044h198v-1036q0 -190 -85 -251.5t-283 -61.5q-168 0 -244 22z" />
<glyph unicode="K" horiz-adv-x="1247" d="M172 0v1329h199v-1329h-199zM375 707l594 622h239l-598 -614l658 -715h-258z" />
<glyph unicode="L" horiz-adv-x="1064" d="M172 0v1329h199v-1190h653v-139h-852z" />
<glyph unicode="M" horiz-adv-x="1763" d="M172 0v1329h297l426 -1106l6 -2l404 1108h286v-1329h-174v1124h-10l-428 -1124h-178l-441 1124h-10v-1124h-178z" />
<glyph unicode="N" horiz-adv-x="1480" d="M172 0v1329h240l723 -1098v1098h174v-1329h-240l-723 1116v-1116h-174z" />
<glyph unicode="O" horiz-adv-x="1390" d="M135 340v629q0 381 557 381q563 0 563 -379v-631q0 -109 -52 -184.5t-142 -111.5t-178 -50t-191 -14q-557 0 -557 360zM326 342q0 -229 370 -229q367 0 367 229v633q0 246 -369 246q-78 0 -137 -9.5t-114.5 -35t-86 -75.5t-30.5 -126v-633z" />
<glyph unicode="P" horiz-adv-x="1167" d="M172 0v1329h434q82 0 141.5 -4t126 -19.5t106.5 -43t67.5 -76.5t27.5 -119v-276q0 -170 -132 -241t-374 -71h-198v-479h-199zM369 604h227q119 0 202 44t83 153v241q0 55 -29 91t-82 50.5t-89 17.5t-89 3h-223v-600z" />
<glyph unicode="Q" horiz-adv-x="1384" d="M131 360v609q0 381 559 381q561 0 561 -379v-549q0 -190 -182 -309h328v-113h-707q-559 0 -559 360zM322 362q0 -229 372 -229q367 0 367 229v613q0 246 -369 246q-78 0 -138 -9.5t-115.5 -35t-86 -75.5t-30.5 -126v-613z" />
<glyph unicode="R" horiz-adv-x="1253" d="M172 0v1329h467q250 0 358.5 -50t108.5 -210v-229q0 -123 -100.5 -185.5t-243.5 -62.5l426 -592h-244l-381 567h-192v-567h-199zM371 698h260q141 0 208.5 35t67.5 131v185q0 149 -255 149h-3h-278v-500z" />
<glyph unicode="S" horiz-adv-x="1165" d="M123 934v106q0 158 111.5 234t410.5 76q143 0 342 -23v-149q-221 34 -349 34h-7q-190 0 -253 -37.5t-63 -127.5v-152q0 -70 49.5 -101.5t174.5 -31.5h159q207 0 281 -74.5t74 -236.5v-97q0 -213 -121 -293.5t-377 -80.5q-164 0 -405 32v166q242 -51 417 -51 q141 0 216 31.5t75 128.5v172q0 84 -48 119.5t-173 35.5h-156q-201 0 -279.5 81t-78.5 239z" />
<glyph unicode="T" horiz-adv-x="1198" d="M49 1190v139h1100v-139h-449v-1190h-200v1190h-451z" />
<glyph unicode="U" horiz-adv-x="1384" d="M172 340v989h190v-987q0 -131 88.5 -180t244 -49t240.5 49t85 180v987h190v-989q0 -360 -520 -360q-104 0 -186 13t-162 49t-125 111.5t-45 186.5z" />
<glyph unicode="V" horiz-adv-x="1335" d="M31 1329h207l426 -1141h18l426 1141h197l-529 -1329h-229z" />
<glyph unicode="W" horiz-adv-x="1982" d="M16 1329h211l330 -1141h4l330 1141h211l330 -1141h4l329 1141h201l-428 -1329h-231l-318 1106l-325 -1106h-232z" />
<glyph unicode="X" horiz-adv-x="1236" d="M16 0l490 678l-469 651h227l354 -514l355 514h227l-469 -651l490 -678h-228l-375 541l-374 -541h-228z" />
<glyph unicode="Y" horiz-adv-x="1196" d="M16 1329h228l354 -624l354 624h228l-484 -786v-543h-198v537z" />
<glyph unicode="Z" d="M82 0v139l782 1051h-762v139h992v-139l-783 -1051h795v-139h-1024z" />
<glyph unicode="[" horiz-adv-x="675" d="M172 -389v1896h463v-98h-285v-1700h285v-98h-463z" />
<glyph unicode="\" horiz-adv-x="862" d="M20 1350h158l664 -1370h-158z" />
<glyph unicode="]" horiz-adv-x="675" d="M41 -291h285v1700h-285v98h463v-1896h-463v98z" />
<glyph unicode="^" horiz-adv-x="657" d="M41 928l156 465h260l159 -465h-139l-149 383l-148 -383h-139z" />
<glyph unicode="_" d="M145 -143h897v-146h-897v146z" />
<glyph unicode="`" horiz-adv-x="489" d="M41 1393h223l185 -260h-152z" />
<glyph unicode="a" horiz-adv-x="1101" d="M102 295q0 166 74 228.5t285 62.5h297v157q0 82 -50.5 111t-189.5 29q-152 0 -340 -25v135q203 18 367 19q250 0 323.5 -60.5t73.5 -251.5v-700h-178v94q-23 -114 -294 -114h-5q-205 0 -284 62t-79 253zM283 289q0 -104 33.5 -146.5t142.5 -42.5h37q53 0 89 2t81 11.5 t68.5 31t23.5 56.5v270h-285q-127 0 -158.5 -32.5t-31.5 -149.5z" />
<glyph unicode="b" horiz-adv-x="1185" d="M160 324v1110h184v-297q0 -39 -1 -118t-1 -118q8 47 85 79t226 32q410 0 410 -281v-407q0 -90 -26.5 -156t-66.5 -101.5t-105.5 -56t-123 -25.5t-139.5 -5q-106 0 -174 10t-135.5 43t-100 105.5t-32.5 185.5zM344 297q0 -125 56.5 -161t205.5 -36q152 0 210 36t58 161 v389q0 127 -59 161t-211 34q-145 0 -202.5 -39t-57.5 -156v-389z" />
<glyph unicode="c" horiz-adv-x="950" d="M123 303v365q0 82 15.5 141t48 96t67.5 59.5t95.5 32t106.5 12.5t124 3q141 0 282 -31v-135q-160 41 -305 41q-154 0 -200 -37t-46 -156v-405q0 -109 52.5 -144.5t214.5 -35.5q145 0 299 38v-139q-130 -28 -306 -28h-12q-90 0 -140 3t-114.5 20t-98.5 50t-58.5 95.5 t-24.5 154.5z" />
<glyph unicode="d" horiz-adv-x="1169" d="M123 295v436q0 150 92 215.5t309 65.5q117 0 216.5 -31t101.5 -96h4q-4 168 -4 252v297h184v-1434h-180v117q0 -53 -89 -95t-243 -42q-215 0 -303 67.5t-88 247.5zM305 260q0 -84 56.5 -119t191.5 -35q152 0 220.5 35t68.5 119v490q0 133 -273 133q-164 0 -214 -24.5 t-50 -108.5v-490z" />
<glyph unicode="e" horiz-adv-x="1095" d="M123 283v391q0 182 104.5 260t333.5 78q215 0 314.5 -75t99.5 -263v-219h-666v-150q0 -104 74 -148t219 -44q141 0 334 49v-142q-180 -40 -350 -40h-8q-455 0 -455 303zM309 575h482v156q0 90 -55.5 124t-184.5 34q-123 0 -182.5 -33t-59.5 -125v-156z" />
<glyph unicode="f" horiz-adv-x="778" d="M20 870v121h228v160q0 168 94 235.5t274 67.5q80 0 166 -10v-121q-72 10 -159 10q-100 0 -145.5 -34.5t-45.5 -135.5v-172h330v-121h-330v-870h-184v870h-228z" />
<glyph unicode="g" horiz-adv-x="1165" d="M123 281v403q0 176 95 252t312 76q258 0 304 -117v96h172v-1085q0 -211 -118 -284t-353 -73q-211 0 -342 23v131q236 -29 358 -29q141 0 205.5 45t64.5 150v237q-4 -70 -95 -98t-208 -28q-229 0 -312 67.5t-83 233.5zM305 268q0 -102 50.5 -134t201.5 -32q139 0 201.5 34 t62.5 132v449q0 96 -52 132t-216 36q-154 0 -201 -35t-47 -133v-449z" />
<glyph unicode="h" horiz-adv-x="1173" d="M160 0v1434h184v-564q29 141 326 142q197 0 270.5 -71t73.5 -214v-727h-185v715q0 37 -6 61.5t-25.5 50t-65.5 39t-116 13.5q-170 0 -221 -37t-51 -127v-715h-184z" />
<glyph unicode="i" horiz-adv-x="503" d="M160 0v991h184v-991h-184zM160 1157v193h184v-193h-184z" />
<glyph unicode="j" horiz-adv-x="505" d="M-88 -322q49 -8 78 -8q86 0 129 34t43 132v1155h184v-1141q0 -170 -80 -235.5t-250 -65.5q-51 0 -104 9v120zM162 1157v193h184v-193h-184z" />
<glyph unicode="k" horiz-adv-x="1052" d="M160 0v1434h184v-1434h-184zM367 543l417 448h226l-430 -448l469 -543h-230z" />
<glyph unicode="l" horiz-adv-x="503" d="M160 0v1434h184v-1434h-184z" />
<glyph unicode="m" horiz-adv-x="1822" d="M160 0v991h184v-121q29 141 334 142q248 0 309 -135q20 70 115.5 102.5t224.5 32.5q190 0 263 -71t73 -214v-727h-184v715q0 37 -6.5 61.5t-26 50t-65.5 39t-115 13.5q-162 0 -208 -35t-46 -129v-715h-185v715q0 37 -6 61.5t-25.5 50t-64.5 39t-115 13.5q-164 0 -218 -34 t-54 -130v-715h-184z" />
<glyph unicode="n" horiz-adv-x="1173" d="M160 0v991h184v-121q29 141 326 142q197 0 270.5 -71t73.5 -214v-727h-185v717q0 37 -6 61.5t-25.5 50t-65.5 39t-116 13.5q-162 0 -217 -35t-55 -129v-717h-184z" />
<glyph unicode="o" horiz-adv-x="1163" d="M123 313v344q0 98 23.5 166t57.5 105t99.5 56.5t121.5 23.5t154.5 4t155 -4t122 -23.5t99 -56.5t57 -105t23.5 -166v-344q0 -92 -22.5 -155.5t-57 -98t-99 -53t-123 -22.5t-154.5 -4q-123 0 -192 8t-137.5 39.5t-98 101.5t-29.5 184zM311 287q0 -66 14.5 -105t53.5 -56 t80 -21.5t120.5 -4.5t120.5 4.5t80 21.5t53.5 56t14.5 105v401q0 137 -55.5 170t-213 33t-213 -33t-55.5 -170v-401z" />
<glyph unicode="p" horiz-adv-x="1185" d="M160 -426v1417h182v-106h2q23 127 338 127q199 0 290 -83t91 -198v-407q0 -90 -26.5 -156t-66.5 -101.5t-105.5 -56t-123 -25.5t-139.5 -5t-159.5 20t-98.5 63v-489h-184zM344 301q0 -125 56.5 -161t205.5 -36q152 0 210 36t58 161v365q0 137 -59 175t-210.5 38t-206 -37 t-54.5 -176v-365z" />
<glyph unicode="q" horiz-adv-x="1185" d="M160 324v366q0 170 106.5 246t358.5 76q240 0 339 -75t99 -247v-1116h-184v489q-41 -83 -293 -83h-6q-88 0 -144.5 5t-114 25.5t-89 57t-52 100t-20.5 156.5zM348 303q0 -125 58.5 -161t209.5 -36q156 0 209.5 38t53.5 159v363q0 139 -54.5 176t-206.5 37 q-182 0 -226 -37t-44 -176v-363z" />
<glyph unicode="r" horiz-adv-x="718" d="M160 0v991h174v-162q0 72 89 127.5t181 55.5h90v-158h-102q-127 0 -187.5 -33t-60.5 -123v-698h-184z" />
<glyph unicode="s" horiz-adv-x="989" d="M102 686v92q0 233 443 234q49 0 301 -17v-133q-176 29 -309 29q-147 0 -199.5 -28.5t-52.5 -96.5v-84q0 -100 182 -100h115q313 -1 313 -234v-86q0 -160 -111.5 -221t-320.5 -61q-160 0 -340 24v141q246 -39 344 -39q123 0 184.5 24t61.5 97v101q0 63 -43 89.5t-140 26.5 h-112q-156 0 -236 64.5t-80 177.5z" />
<glyph unicode="t" horiz-adv-x="823" d="M20 870v121h222v307h186v-307h354v-121h-354v-591q0 -106 41 -142.5t166 -36.5q33 0 147 17v-121q-98 -16 -207 -16q-186 0 -259.5 64.5t-73.5 244.5v581h-222z" />
<glyph unicode="u" horiz-adv-x="1173" d="M160 264v727h184v-717q0 -37 6 -61.5t25.5 -50t65.5 -38.5t116 -13q154 0 213 28.5t59 104.5v747h185v-991h-185v121q-29 -141 -325 -141q-197 0 -270.5 70.5t-73.5 213.5z" />
<glyph unicode="v" horiz-adv-x="948" d="M12 991h195l274 -831h11l266 831h178l-346 -991h-221z" />
<glyph unicode="w" horiz-adv-x="1622" d="M25 991h202l242 -815h12l234 815h207l241 -815h13l233 815h188l-325 -991h-219l-240 801l-235 -801h-220z" />
<glyph unicode="x" horiz-adv-x="980" d="M20 0l369 510l-348 481h203l245 -362l248 362h203l-348 -481l369 -510h-203l-269 391l-266 -391h-203z" />
<glyph unicode="y" horiz-adv-x="942" d="M12 991h201l276 -809h5l249 809h187l-498 -1417h-192l155 412z" />
<glyph unicode="z" horiz-adv-x="929" d="M82 0v125l557 741h-537v125h746v-125l-557 -741h569v-125h-778z" />
<glyph unicode="{" horiz-adv-x="675" d="M131 559v107q90 0 108.5 25.5t18.5 139.5v365q0 66 9 115t21.5 81.5t37 55t44 34t55.5 17.5t57.5 7t64.5 1h39v-98h-21q-51 0 -88 -35t-37 -98v-373q0 -125 -33.5 -189.5t-127.5 -97.5v-8q94 -31 127.5 -95t33.5 -191v-480q0 -63 37 -98t88 -35h21v-98h-39q-43 0 -64.5 1 t-57.5 7t-55.5 17.5t-44 34t-37 55t-21.5 82t-9 114.5v471q0 115 -18.5 140.5t-108.5 25.5z" />
<glyph unicode="|" horiz-adv-x="686" d="M287 -20v1370h112v-1370h-112z" />
<glyph unicode="}" horiz-adv-x="675" d="M90 -291h21q51 0 88 35t37 98v480q0 127 33.5 191.5t127.5 94.5v8q-94 33 -127.5 97.5t-33.5 189.5v373q0 63 -37 98t-88 35h-21v98h39q43 0 64.5 -1t57.5 -7t55.5 -17.5t44 -34t36.5 -55t21.5 -81.5t9.5 -115v-365q0 -115 18.5 -140t108.5 -25v-107q-90 0 -108.5 -25.5 t-18.5 -140.5v-471q0 -66 -9.5 -115t-21.5 -81.5t-36.5 -55t-44 -34t-55.5 -17.5t-57.5 -7t-64.5 -1h-39v98z" />
<glyph unicode="~" d="M139 481v166q76 92 250 92q78 0 222.5 -60.5t193.5 -60.5q166 0 244 127v-165q-74 -94 -252 -95q-66 0 -210.5 60.5t-205.5 60.5q-86 0 -142.5 -29.5t-99.5 -95.5z" />
<glyph unicode="&#xa1;" horiz-adv-x="573" d="M164 -338l72 963h102l72 -963h-246zM168 770v221h238v-221h-238z" />
<glyph unicode="&#xa2;" d="M227 473v365q0 106 27 175.5t83 103.5t115.5 47.5t151.5 15.5v170h117v-170q131 -6 246 -29v-135q-174 41 -305 41q-156 0 -201 -34t-45 -159v-409q0 -111 51 -143.5t215 -32.5q145 0 299 38v-139q-100 -25 -260 -28v-170h-117v170q-90 0 -149.5 11t-115.5 43t-84 98.5 t-28 170.5z" />
<glyph unicode="&#xa3;" d="M156 0v133h227v516h-227v127h227v189q0 123 24.5 199.5t80 117.5t125 54.5t180.5 13.5q121 0 206 -11v-122q-72 10 -139 10h-18q-170 0 -222.5 -46t-52.5 -204v-201h351v-127h-351v-516h531v-133h-942z" />
<glyph unicode="&#xa4;" d="M86 690q0 176 127 334l-111 111l54 53l110 -111q156 121 324 121q184 0 334 -117l110 111l53 -53l-110 -111q127 -158 127 -334t-127 -334l110 -110l-53 -53l-110 110q-160 -125 -334 -125q-168 0 -324 121l-110 -110l-54 53l111 110q-127 158 -127 334zM168 690 q0 -178 126 -302t304 -124q176 0 300 127t124 303q0 172 -124 297t-298 125q-180 0 -306 -122t-126 -304z" />
<glyph unicode="&#xa5;" d="M16 1329h228l352 -620h4l352 620h228l-381 -620h243v-146h-333l-13 -20v-166h346v-146h-346v-231h-198v231h-353v146h353v160l-17 26h-336v146h248z" />
<glyph unicode="&#xa6;" horiz-adv-x="542" d="M215 330h113v-719h-113v719zM215 610v719h113v-719h-113z" />
<glyph unicode="&#xa7;" d="M135 471v154q0 119 135 174q-94 51 -94 164v112q0 233 463 234q176 0 322 -27v-131q-160 33 -330 33q-150 0 -211.5 -30t-61.5 -95v-80q0 -100 185 -100h194q315 0 316 -234v-127q0 -78 -39 -132t-96 -71q94 -65 94 -163v-105q0 -160 -121 -221.5t-334 -61.5 q-176 0 -360 25v141q188 -35 364 -34q127 0 197.5 23.5t70.5 96.5v97q0 63 -43 89.5t-139 26.5h-178q-158 0 -246 64.5t-88 177.5zM317 467q0 -100 226 -100h157q86 0 128 26.5t42 93.5v138q0 117 -202 116h-174q-96 0 -136.5 -24.5t-40.5 -87.5v-162z" />
<glyph unicode="&#xa8;" horiz-adv-x="655" d="M61 1157v193h185v-193h-185zM410 1157v193h184v-193h-184z" />
<glyph unicode="&#xa9;" horiz-adv-x="1468" d="M123 340v629q0 117 64.5 197.5t172 117.5t202.5 51.5t200 14.5q82 0 157.5 -7.5t165 -32t152.5 -63.5t106 -110.5t43 -165.5v-631q0 -109 -61 -184.5t-163.5 -111.5t-199 -50t-200.5 -14q-84 0 -162 7t-168 30.5t-155.5 61.5t-109.5 105.5t-44 155.5zM283 336 q0 -68 48 -116t128 -71.5t154.5 -33t152.5 -9.5q72 0 139.5 8.5t145 30t126 70.5t48.5 121v649q0 74 -45 126t-120 75.5t-146.5 34t-149.5 10.5q-80 0 -154.5 -10.5t-153.5 -34t-126 -75.5t-47 -126v-649zM436 539v278q0 125 77 186.5t249 61.5t238.5 -54.5t66.5 -172.5v-56 h-149v39q0 82 -30 105.5t-132 23.5q-96 0 -128 -28.5t-32 -120.5v-246q0 -96 30.5 -122.5t129.5 -26.5q113 0 137.5 21.5t24.5 107.5v40h149v-57q0 -117 -63.5 -172t-241.5 -55q-182 0 -254 52.5t-72 195.5z" />
<glyph unicode="&#xaa;" horiz-adv-x="651" d="M72 559v115h508v-115h-508zM72 942q0 96 46 134t173 38h151v78q0 39 -25.5 54.5t-92.5 15.5q-102 0 -209 -13v92q127 10 223 11q152 0 197 -36t45 -149v-397h-134v55q-41 -66 -153 -65q-123 0 -172 35.5t-49 146.5zM211 938q0 -53 15.5 -74.5t62.5 -21.5h22q131 0 131 45 v147h-145q-55 0 -70.5 -18.5t-15.5 -77.5z" />
<glyph unicode="&#xab;" horiz-adv-x="872" d="M82 537l205 393h155l-188 -393l188 -394h-155zM430 537l205 393h156l-189 -393l189 -394h-156z" />
<glyph unicode="&#xac;" horiz-adv-x="1024" d="M123 578v137h778v-479h-137v342h-641z" />
<glyph unicode="&#xad;" horiz-adv-x="491" d="M0 477v129h494v-129h-494z" />
<glyph unicode="&#xae;" horiz-adv-x="1468" d="M123 340v629q0 117 64.5 197.5t172 117.5t202.5 51.5t200 14.5q82 0 157.5 -7.5t165 -32t152.5 -63.5t106 -110.5t43 -165.5v-631q0 -109 -61 -184.5t-163.5 -111.5t-199 -50t-200.5 -14q-84 0 -162 7t-168 30.5t-155.5 61.5t-109.5 105.5t-44 155.5zM283 336 q0 -68 48 -116t128 -71.5t154.5 -33t152.5 -9.5q72 0 139.5 8.5t145 30t126 70.5t48.5 121v649q0 74 -45 126t-120 75.5t-146.5 34t-149.5 10.5q-80 0 -154.5 -10.5t-153.5 -34t-126 -75.5t-47 -126v-649zM494 266v797h280q156 0 218.5 -31t62.5 -125v-153q0 -76 -52.5 -115 t-134.5 -39l236 -334h-168l-207 320h-96v-320h-139zM633 684h137q88 0 115.5 13.5t27.5 66.5v131q0 43 -26.5 56.5t-106.5 13.5h-147v-281z" />
<glyph unicode="&#xaf;" horiz-adv-x="610" d="M82 1208v121h446v-121h-446z" />
<glyph unicode="&#xb0;" horiz-adv-x="833" d="M123 963v161q0 139 74.5 182.5t220 43.5t219.5 -43.5t74 -182.5v-161q0 -55 -15.5 -93.5t-39 -58.5t-65.5 -31.5t-78 -13.5t-95.5 -2t-95 2t-78.5 13.5t-65.5 31.5t-39 58t-16.5 94zM266 963q0 -47 19.5 -70t47 -27t85 -4t84 4t46 27t19.5 70v178q0 74 -31.5 92 t-117.5 18t-119 -18.5t-33 -91.5v-178z" />
<glyph unicode="&#xb1;" horiz-adv-x="1024" d="M123 0v137h778v-137h-778zM123 578v137h319v340h138v-340h321v-137h-321v-342h-138v342h-319z" />
<glyph unicode="&#xb2;" horiz-adv-x="774" d="M84 559v166q0 72 47 120t112.5 72.5t132 44t114 48t47.5 69.5v90q0 66 -191 66q-94 0 -240 -27v117q139 23 261 23q172 0 246.5 -37t74.5 -131v-123q0 -72 -71.5 -123t-158.5 -73.5t-159 -54.5t-72 -69v-59h465v-119h-608z" />
<glyph unicode="&#xb3;" horiz-adv-x="774" d="M96 571v123q143 -29 291 -28q176 0 176 82v88q0 45 -42 63.5t-134 18.5h-158v100h158q76 0 114 13t38 52v82q0 41 -40 56.5t-130 15.5q-80 0 -244 -12v114q143 10 262 11q303 0 303 -150v-121q0 -80 -110 -104l2 -2q135 -27 135 -131v-109q0 -98 -81 -138t-249 -40 q-139 0 -291 16z" />
<glyph unicode="&#xb4;" horiz-adv-x="489" d="M41 1133l184 260h224l-256 -260h-152z" />
<glyph unicode="&#xb5;" horiz-adv-x="1173" d="M160 -428v1419h184v-717q0 -37 6 -61.5t25.5 -50t65.5 -38.5t116 -13q154 0 213 28.5t59 104.5v747h185v-991h-180v121q-35 -141 -330 -141q-90 0 -160 16v-424h-184z" />
<glyph unicode="&#xb6;" horiz-adv-x="1173" d="M82 1026q0 176 46 239.5t173 63.5h721v-33l-47 -34q-43 -33 -43 -76v-1567h-109v1622h-307v-1622h-108v1102q-205 0 -265.5 56.5t-60.5 248.5z" />
<glyph unicode="&#xb7;" horiz-adv-x="524" d="M143 573v222h238v-222h-238z" />
<glyph unicode="&#xb8;" horiz-adv-x="485" d="M55 -412l43 93q61 -35 119 -35q96 0 96 82q0 39 -45 61.5t-114 22.5h-68q47 79 100 188h129l-53 -106q76 -2 133.5 -42t57.5 -118q0 -90 -70 -137.5t-162 -47.5q-100 0 -166 39z" />
<glyph unicode="&#xb9;" horiz-adv-x="774" d="M154 1024v139l245 166h127v-770h-145v610z" />
<glyph unicode="&#xba;" horiz-adv-x="688" d="M70 952v191q0 72 18 116t60 63t83 24.5t113 5.5t113 -5.5t83 -24.5t60 -63t18 -116v-191q0 -66 -18 -106.5t-60 -58t-83 -22.5t-113 -5q-57 0 -92 2t-74 13t-59.5 30.5t-34.5 56.5t-14 90zM72 559v115h546v-115h-546zM209 938q0 -63 28.5 -78.5t106.5 -15.5 q76 0 103.5 15.5t27.5 78.5v223q0 72 -27.5 89.5t-103.5 17.5q-80 0 -107.5 -17.5t-27.5 -89.5v-223z" />
<glyph unicode="&#xbb;" horiz-adv-x="872" d="M82 143l188 394l-188 393h156l204 -393l-204 -394h-156zM430 143l188 394l-188 393h156l205 -393l-205 -394h-156z" />
<glyph unicode="&#xbc;" horiz-adv-x="1957" d="M301 1024v139l246 166h127v-770h-146v610zM475 0l844 1329h166l-844 -1329h-166zM1163 174v102l428 494h170v-491h99v-105h-99v-174h-147v174h-451zM1315 279h299l-2 346z" />
<glyph unicode="&#xbd;" horiz-adv-x="1957" d="M301 1024v139l246 166h127v-770h-146v610zM475 0l844 1329h166l-844 -1329h-166zM1219 0v166q0 72 47 120t113.5 72.5t132 44t112.5 48t47 69.5v90q0 66 -190 66q-94 0 -240 -27v117q139 23 260 22q172 0 247 -36.5t75 -130.5v-123q0 -72 -72 -123t-159 -73.5 t-158.5 -54.5t-71.5 -69v-59h465v-119h-608z" />
<glyph unicode="&#xbe;" horiz-adv-x="1957" d="M96 571v123q143 -29 291 -28q176 0 176 82v88q0 45 -42 63.5t-134 18.5h-158v100h158q76 0 114 13t38 52v82q0 41 -40 56.5t-130 15.5q-80 0 -244 -12v114q143 10 262 11q303 0 303 -150v-121q0 -80 -110 -104l2 -2q135 -27 135 -131v-109q0 -98 -81 -138t-249 -40 q-139 0 -291 16zM475 0l844 1329h166l-844 -1329h-166zM1163 174v102l428 494h170v-491h99v-105h-99v-174h-147v174h-451zM1315 279h299l-2 346z" />
<glyph unicode="&#xbf;" horiz-adv-x="1091" d="M123 33q0 92 39 159.5t94 107.5t110.5 74t94.5 78t39 101v88h184v-49q0 -111 -38 -185.5t-91 -113.5t-106.5 -73t-91.5 -86t-38 -128v-61q0 -96 61.5 -127t197.5 -31q143 0 391 43v-149q-215 -39 -430 -39q-219 0 -317.5 65.5t-98.5 222.5v103zM475 770v221h238v-221 h-238z" />
<glyph unicode="&#xc0;" horiz-adv-x="1335" d="M31 0l528 1329h229l517 -1329h-207l-152 403h-569l-150 -403h-196zM328 1679h223l184 -260h-151zM428 541h469l-225 600h-19z" />
<glyph unicode="&#xc1;" horiz-adv-x="1335" d="M31 0l528 1329h229l517 -1329h-207l-152 403h-569l-150 -403h-196zM428 541h469l-225 600h-19zM553 1440l184 260h224l-256 -260h-152z" />
<glyph unicode="&#xc2;" horiz-adv-x="1335" d="M31 0l528 1329h229l517 -1329h-207l-152 403h-569l-150 -403h-196zM428 541h469l-225 600h-19zM430 1440l139 260h219l136 -260h-119l-127 178l-129 -178h-119z" />
<glyph unicode="&#xc3;" horiz-adv-x="1335" d="M31 0l528 1329h229l517 -1329h-207l-152 403h-569l-150 -403h-196zM389 1415v150q49 59 133 59q49 0 133 -35t123 -35q45 0 74 21.5t59 66.5v-141q-47 -80 -133 -80q-53 0 -135 37t-121 37q-82 0 -133 -80zM428 541h469l-225 600h-19z" />
<glyph unicode="&#xc4;" horiz-adv-x="1335" d="M31 0l528 1329h229l517 -1329h-207l-152 403h-569l-150 -403h-196zM389 1464v193h184v-193h-184zM428 541h469l-225 600h-19zM737 1464v193h185v-193h-185z" />
<glyph unicode="&#xc5;" horiz-adv-x="1335" d="M31 0l465 1147q-117 35 -117 176v27q0 59 15.5 99t38 62.5t64.5 33.5t76.5 13.5t94 2.5t94.5 -2.5t77 -13.5t64.5 -33.5t37.5 -62.5t15 -99v-27q0 -131 -106 -174l455 -1149h-207l-152 406h-567l-152 -406h-196zM428 541h469l-217 575h-35zM516 1317q0 -63 35 -79.5 t117 -16.5q55 0 82.5 4t48 25.5t20.5 66.5v29q0 70 -33.5 88t-117.5 18t-118 -18.5t-34 -87.5v-29z" />
<glyph unicode="&#xc6;" horiz-adv-x="1890" d="M0 0l733 1329h1034v-139h-632v-434h565v-140h-565v-477h653v-139h-852v403h-504l-209 -403h-223zM502 541h434v649h-98z" />
<glyph unicode="&#xc7;" horiz-adv-x="1155" d="M131 340v631q0 381 559 381q186 0 365 -39v-148q-197 49 -361 49q-78 0 -137 -9t-116.5 -32.5t-88 -73.5t-30.5 -126v-623q0 -229 380 -229q164 0 361 49v-152q-160 -35 -328 -38l-43 -86q76 -2 133.5 -42t57.5 -118q0 -90 -70 -137.5t-162 -47.5q-100 0 -166 39l43 93 q61 -35 119 -35q96 0 96 82q0 39 -45 61.5t-114 22.5h-68q45 78 92 170q-477 27 -477 358z" />
<glyph unicode="&#xc8;" d="M172 0v1329h893v-139h-694v-434h626v-140h-626v-477h714v-139h-913zM307 1700h223l185 -260h-152z" />
<glyph unicode="&#xc9;" d="M172 0v1329h893v-139h-694v-434h626v-140h-626v-477h714v-139h-913zM451 1440l184 260h223l-256 -260h-151z" />
<glyph unicode="&#xca;" d="M172 0v1329h893v-139h-694v-434h626v-140h-626v-477h714v-139h-913zM369 1440l139 260h219l135 -260h-119l-127 178l-129 -178h-118z" />
<glyph unicode="&#xcb;" d="M172 0v1329h893v-139h-694v-434h626v-140h-626v-477h714v-139h-913zM360 1464v193h185v-193h-185zM709 1464v193h184v-193h-184z" />
<glyph unicode="&#xcc;" horiz-adv-x="542" d="M-53 1700h223l184 -260h-151zM172 0v1329h199v-1329h-199z" />
<glyph unicode="&#xcd;" horiz-adv-x="542" d="M172 0v1329h199v-1329h-199zM172 1440l184 260h224l-256 -260h-152z" />
<glyph unicode="&#xce;" horiz-adv-x="542" d="M23 1440l139 260h219l135 -260h-119l-127 178l-129 -178h-118zM172 0v1329h199v-1329h-199z" />
<glyph unicode="&#xcf;" horiz-adv-x="542" d="M8 1464v193h185v-193h-185zM172 0v1329h199v-1329h-199zM356 1464v193h185v-193h-185z" />
<glyph unicode="&#xd0;" horiz-adv-x="1390" d="M41 616v140h131v573h528q559 0 560 -381v-588q0 -360 -558 -360h-530v616h-131zM371 135h317q381 0 381 230v585q0 76 -30.5 126t-87 74t-116 33t-137.5 9h-327v-436h217v-140h-217v-481z" />
<glyph unicode="&#xd1;" horiz-adv-x="1480" d="M172 0v1329h240l723 -1098v1098h174v-1329h-240l-723 1116v-1116h-174zM479 1415v150q49 59 133 59q49 0 133 -35t123 -35q45 0 74 21.5t59 66.5v-141q-47 -80 -133 -80q-53 0 -135 37t-121 37q-82 0 -133 -80z" />
<glyph unicode="&#xd2;" horiz-adv-x="1390" d="M135 340v629q0 381 557 381q563 0 563 -379v-631q0 -109 -52 -184.5t-142 -111.5t-178 -50t-191 -14q-557 0 -557 360zM326 342q0 -229 370 -229q367 0 367 229v633q0 246 -369 246q-78 0 -137 -9.5t-114.5 -35t-86 -75.5t-30.5 -126v-633zM348 1700h223l185 -260h-152z " />
<glyph unicode="&#xd3;" horiz-adv-x="1390" d="M135 340v629q0 381 557 381q563 0 563 -379v-631q0 -109 -52 -184.5t-142 -111.5t-178 -50t-191 -14q-557 0 -557 360zM326 342q0 -229 370 -229q367 0 367 229v633q0 246 -369 246q-78 0 -137 -9.5t-114.5 -35t-86 -75.5t-30.5 -126v-633zM553 1440l184 260h224 l-256 -260h-152z" />
<glyph unicode="&#xd4;" horiz-adv-x="1390" d="M135 340v629q0 381 557 381q563 0 563 -379v-631q0 -109 -52 -184.5t-142 -111.5t-178 -50t-191 -14q-557 0 -557 360zM326 342q0 -229 370 -229q367 0 367 229v633q0 246 -369 246q-78 0 -137 -9.5t-114.5 -35t-86 -75.5t-30.5 -126v-633zM451 1440l139 260h219 l135 -260h-119l-127 178l-129 -178h-118z" />
<glyph unicode="&#xd5;" horiz-adv-x="1390" d="M135 340v629q0 381 557 381q563 0 563 -379v-631q0 -109 -52 -184.5t-142 -111.5t-178 -50t-191 -14q-557 0 -557 360zM326 342q0 -229 370 -229q367 0 367 229v633q0 246 -369 246q-78 0 -137 -9.5t-114.5 -35t-86 -75.5t-30.5 -126v-633zM369 1415v150q49 59 133 59 q49 0 133 -35t123 -35q45 0 73.5 21.5t59.5 66.5v-141q-47 -80 -133 -80q-53 0 -135 37t-121 37q-82 0 -133 -80z" />
<glyph unicode="&#xd6;" horiz-adv-x="1390" d="M135 340v629q0 381 557 381q563 0 563 -379v-631q0 -109 -52 -184.5t-142 -111.5t-178 -50t-191 -14q-557 0 -557 360zM326 342q0 -229 370 -229q367 0 367 229v633q0 246 -369 246q-78 0 -137 -9.5t-114.5 -35t-86 -75.5t-30.5 -126v-633zM410 1464v193h184v-193h-184z M758 1464v193h184v-193h-184z" />
<glyph unicode="&#xd7;" horiz-adv-x="1024" d="M143 375l271 270l-271 270l99 97l268 -271l272 273l97 -99l-271 -270l271 -270l-97 -99l-272 271l-268 -268z" />
<glyph unicode="&#xd8;" horiz-adv-x="1390" d="M135 340v629q0 381 557 381q563 0 563 -379v-631q0 -109 -52 -184.5t-142 -111.5t-178 -50t-191 -14q-557 0 -557 360zM326 342q0 -39 4 -55l643 872q-90 61 -279 62q-78 0 -137 -9.5t-114.5 -35t-86 -75.5t-30.5 -126v-633zM416 170q88 -57 280 -57q367 0 367 229v633 q0 33 -6 63z" />
<glyph unicode="&#xd9;" horiz-adv-x="1384" d="M172 340v989h190v-987q0 -131 88.5 -180t244 -49t240.5 49t85 180v987h190v-989q0 -360 -520 -360q-104 0 -186 13t-162 49t-125 111.5t-45 186.5zM412 1700h223l184 -260h-151z" />
<glyph unicode="&#xda;" horiz-adv-x="1384" d="M172 340v989h190v-987q0 -131 88.5 -180t244 -49t240.5 49t85 180v987h190v-989q0 -360 -520 -360q-104 0 -186 13t-162 49t-125 111.5t-45 186.5zM535 1440l184 260h223l-256 -260h-151z" />
<glyph unicode="&#xdb;" horiz-adv-x="1384" d="M172 340v989h190v-987q0 -131 88.5 -180t244 -49t240.5 49t85 180v987h190v-989q0 -360 -520 -360q-104 0 -186 13t-162 49t-125 111.5t-45 186.5zM432 1440l139 260h220l135 -260h-119l-127 178l-129 -178h-119z" />
<glyph unicode="&#xdc;" horiz-adv-x="1384" d="M172 340v989h190v-987q0 -131 88.5 -180t244 -49t240.5 49t85 180v987h190v-989q0 -360 -520 -360q-104 0 -186 13t-162 49t-125 111.5t-45 186.5zM412 1464v193h184v-193h-184zM760 1464v193h184v-193h-184z" />
<glyph unicode="&#xdd;" horiz-adv-x="1196" d="M16 1329h228l354 -624l354 624h228l-484 -786v-543h-198v537zM451 1440l184 260h223l-256 -260h-151z" />
<glyph unicode="&#xde;" horiz-adv-x="1167" d="M172 0v1329h199v-235h235q82 0 141.5 -4.5t126 -19.5t106.5 -43t67.5 -77t27.5 -119v-276q0 -170 -132 -240.5t-374 -70.5h-198v-244h-199zM371 369h225q119 0 202 44t83 152v242q0 55 -29 91t-82 50.5t-89 17.5t-89 3h-221v-600z" />
<glyph unicode="&#xdf;" horiz-adv-x="1232" d="M160 0v971q0 221 98 300t367 79q172 0 269 -35t127 -86t30 -131v-199q0 -84 -44 -126t-133 -62v-9q106 -18 171 -72.5t65 -142.5v-223q0 -145 -110.5 -204.5t-360.5 -59.5h-123v131h133q150 0 211.5 31t61.5 104v207q0 53 -21.5 85t-68 45t-82 16.5t-101.5 3.5h-133v125 h125q127 0 180 37.5t53 119.5v176q0 74 -59 106t-190 32q-172 0 -224.5 -37t-52.5 -170v-1012h-188z" />
<glyph unicode="&#xe0;" horiz-adv-x="1101" d="M102 295q0 166 74 228.5t285 62.5h297v157q0 82 -50.5 111t-189.5 29q-152 0 -340 -25v135q203 18 367 19q250 0 323.5 -60.5t73.5 -251.5v-700h-178v94q-23 -115 -299 -114q-205 0 -284 62t-79 253zM246 1393h223l184 -260h-151zM283 289q0 -104 33.5 -146.5 t142.5 -42.5h37q53 0 89 2t81 11.5t68.5 31t23.5 56.5v270h-285q-127 0 -158.5 -32.5t-31.5 -149.5z" />
<glyph unicode="&#xe1;" horiz-adv-x="1101" d="M102 295q0 166 74 228.5t285 62.5h297v157q0 82 -50.5 111t-189.5 29q-152 0 -340 -25v135q203 18 367 19q250 0 323.5 -60.5t73.5 -251.5v-700h-178v94q-23 -115 -299 -114q-205 0 -284 62t-79 253zM283 289q0 -104 33.5 -146.5t142.5 -42.5h37q53 0 89 2t81 11.5 t68.5 31t23.5 56.5v270h-285q-127 0 -158.5 -32.5t-31.5 -149.5zM389 1133l184 260h224l-256 -260h-152z" />
<glyph unicode="&#xe2;" horiz-adv-x="1101" d="M102 295q0 166 74 228.5t285 62.5h297v157q0 82 -50.5 111t-189.5 29q-152 0 -340 -25v135q203 18 367 19q250 0 323.5 -60.5t73.5 -251.5v-700h-178v94q-23 -115 -299 -114q-205 0 -284 62t-79 253zM283 289q0 -104 33.5 -146.5t142.5 -42.5h37q53 0 89 2t81 11.5 t68.5 31t23.5 56.5v270h-285q-127 0 -158.5 -32.5t-31.5 -149.5zM287 1133l139 260h219l135 -260h-118l-127 178l-129 -178h-119z" />
<glyph unicode="&#xe3;" horiz-adv-x="1101" d="M102 295q0 166 74 228.5t285 62.5h297v157q0 82 -50.5 111t-189.5 29q-152 0 -340 -25v135q203 18 367 19q250 0 323.5 -60.5t73.5 -251.5v-700h-178v94q-23 -115 -299 -114q-205 0 -284 62t-79 253zM283 289q0 -104 33.5 -146.5t142.5 -42.5h37q53 0 89 2t81 11.5 t68.5 31t23.5 56.5v270h-285q-127 0 -158.5 -32.5t-31.5 -149.5zM291 1108v149q49 60 133 60q49 0 133 -35t123 -35q45 0 73.5 21.5t59.5 66.5v-141q-47 -80 -133 -80q-53 0 -135 37t-121 37q-82 0 -133 -80z" />
<glyph unicode="&#xe4;" horiz-adv-x="1101" d="M102 295q0 166 74 228.5t285 62.5h297v157q0 82 -50.5 111t-189.5 29q-152 0 -340 -25v135q203 18 367 19q250 0 323.5 -60.5t73.5 -251.5v-700h-178v94q-23 -115 -299 -114q-205 0 -284 62t-79 253zM266 1157v193h185v-193h-185zM283 289q0 -104 33.5 -146.5 t142.5 -42.5h37q53 0 89 2t81 11.5t68.5 31t23.5 56.5v270h-285q-127 0 -158.5 -32.5t-31.5 -149.5zM614 1157v193h185v-193h-185z" />
<glyph unicode="&#xe5;" horiz-adv-x="1101" d="M102 295q0 166 74 228.5t285 62.5h297v157q0 82 -50.5 111t-189.5 29q-152 0 -340 -25v135q203 18 367 19q250 0 323.5 -60.5t73.5 -251.5v-700h-178v94q-23 -115 -299 -114q-205 0 -284 62t-79 253zM276 1333v25q0 74 17.5 119t59.5 64.5t82 24.5t114 5q57 0 92 -3 t74 -14.5t59.5 -33t34.5 -62.5t14 -100v-25q0 -70 -17.5 -111.5t-59 -60t-82.5 -23.5t-115 -5t-114 5t-82 23.5t-59.5 60.5t-17.5 111zM283 289q0 -104 33.5 -146.5t142.5 -42.5h37q53 0 89 2t81 11.5t68.5 31t23.5 56.5v270h-285q-127 0 -158.5 -32.5t-31.5 -149.5z M406 1319q0 -68 29.5 -84t113.5 -16t114.5 16t30.5 84v55q0 74 -30.5 92.5t-114.5 18.5t-113.5 -18.5t-29.5 -92.5v-55z" />
<glyph unicode="&#xe6;" horiz-adv-x="1720" d="M102 287q0 172 73 235.5t286 63.5h307v153q0 78 -52 111t-181 33q-225 0 -357 -35v135q154 29 381 29q244 0 324 -72q100 72 313 72t308 -74t95 -264v-219h-645v-150q0 -104 69 -148t214 -44q131 0 324 49v-142q-186 -41 -355 -40q-260 0 -370 116q-29 -117 -365 -116 q-215 0 -292 60t-77 247zM283 289q0 -111 33.5 -152t162.5 -41q57 0 88 1t76 8.5t67.5 19.5t40 36.5t17.5 61.5v248h-295q-127 0 -158.5 -32.5t-31.5 -149.5zM954 575h461v156q0 92 -50 125t-177 33q-121 0 -177.5 -33t-56.5 -125v-156z" />
<glyph unicode="&#xe7;" horiz-adv-x="950" d="M123 303v365q0 82 15.5 141t48 96t67.5 59.5t95.5 32t106.5 12.5t124 3q141 0 282 -31v-135q-160 41 -305 41q-158 0 -202 -33t-44 -160v-409q0 -109 51.5 -142.5t215.5 -33.5q145 0 299 38v-139q-119 -23 -254 -26l-43 -88q76 -2 133 -42t57 -118q0 -90 -69.5 -137.5 t-161.5 -47.5q-100 0 -166 39l43 93q61 -35 119 -35q96 0 96 82q0 39 -45 61.5t-115 22.5h-68q49 84 91 168q-72 2 -120 8t-99.5 25.5t-82 53t-50 93t-19.5 143.5z" />
<glyph unicode="&#xe8;" horiz-adv-x="1095" d="M123 283v391q0 182 104.5 260t333.5 78q215 0 314.5 -75t99.5 -263v-219h-666v-150q0 -104 74 -148t219 -44q141 0 334 49v-142q-184 -41 -358 -40q-455 0 -455 303zM246 1393h223l184 -260h-151zM309 575h482v156q0 90 -55.5 124t-184.5 34q-123 0 -182.5 -33 t-59.5 -125v-156z" />
<glyph unicode="&#xe9;" horiz-adv-x="1095" d="M123 283v391q0 182 104.5 260t333.5 78q215 0 314.5 -75t99.5 -263v-219h-666v-150q0 -104 74 -148t219 -44q141 0 334 49v-142q-184 -41 -358 -40q-455 0 -455 303zM309 575h482v156q0 90 -55.5 124t-184.5 34q-123 0 -182.5 -33t-59.5 -125v-156zM410 1133l184 260h223 l-256 -260h-151z" />
<glyph unicode="&#xea;" horiz-adv-x="1095" d="M123 283v391q0 182 104.5 260t333.5 78q215 0 314.5 -75t99.5 -263v-219h-666v-150q0 -104 74 -148t219 -44q141 0 334 49v-142q-184 -41 -358 -40q-455 0 -455 303zM287 1133l139 260h219l135 -260h-118l-127 178l-129 -178h-119zM309 575h482v156q0 90 -55.5 124 t-184.5 34q-123 0 -182.5 -33t-59.5 -125v-156z" />
<glyph unicode="&#xeb;" horiz-adv-x="1095" d="M123 283v391q0 182 104.5 260t333.5 78q215 0 314.5 -75t99.5 -263v-219h-666v-150q0 -104 74 -148t219 -44q141 0 334 49v-142q-184 -41 -358 -40q-455 0 -455 303zM266 1157v193h185v-193h-185zM309 575h482v156q0 90 -55.5 124t-184.5 34q-123 0 -182.5 -33 t-59.5 -125v-156zM614 1157v193h185v-193h-185z" />
<glyph unicode="&#xec;" horiz-adv-x="503" d="M53 1393h223l185 -260h-152zM162 0v991h184v-991h-184z" />
<glyph unicode="&#xed;" horiz-adv-x="503" d="M162 0v991h184v-991h-184zM162 1133l184 260h223l-256 -260h-151z" />
<glyph unicode="&#xee;" horiz-adv-x="503" d="M14 1133l140 260h219l135 -260h-119l-127 178l-129 -178h-119zM162 0v991h184v-991h-184z" />
<glyph unicode="&#xef;" horiz-adv-x="503" d="M-10 1157v193h184v-193h-184zM162 0v991h184v-991h-184zM338 1157v193h184v-193h-184z" />
<glyph unicode="&#xf0;" horiz-adv-x="1163" d="M127 313v344q0 96 20.5 162t53 104t94 57t124 25.5t161.5 6.5q117 0 190 -8q-63 123 -145 223l-238 -70v117l156 47q-35 39 -109 113h217l64 -62l207 62v-117l-125 -37q236 -287 235 -623v-344q0 -94 -20.5 -156.5t-52 -97t-95 -53t-123 -22.5t-161.5 -4q-104 0 -164 4 t-123.5 22.5t-94 53t-51 97t-20.5 156.5zM311 287q0 -125 57.5 -157t211 -32t211 32t57.5 157v401q0 137 -55.5 171t-213 34t-213 -34t-55.5 -171v-401z" />
<glyph unicode="&#xf1;" horiz-adv-x="1173" d="M160 0v991h184v-121q29 141 326 142q197 0 270.5 -71t73.5 -214v-727h-185v717q0 37 -6 61.5t-25.5 50t-65.5 39t-116 13.5q-162 0 -217 -35t-55 -129v-717h-184zM307 1108v149q49 60 133 60q49 0 133 -35t123 -35q45 0 74 21.5t59 66.5v-141q-47 -80 -133 -80 q-53 0 -135 37t-121 37q-82 0 -133 -80z" />
<glyph unicode="&#xf2;" horiz-adv-x="1163" d="M123 313v344q0 98 23.5 166t57.5 105t99.5 56.5t121.5 23.5t154.5 4t155 -4t122 -23.5t99 -56.5t57 -105t23.5 -166v-344q0 -92 -22.5 -155.5t-57 -98t-99 -53t-123 -22.5t-154.5 -4q-123 0 -192 8t-137.5 39.5t-98 101.5t-29.5 184zM266 1393h223l185 -260h-152z M311 287q0 -66 14.5 -105t53.5 -56t80 -21.5t120.5 -4.5t120.5 4.5t80 21.5t53.5 56t14.5 105v401q0 137 -55.5 170t-213 33t-213 -33t-55.5 -170v-401z" />
<glyph unicode="&#xf3;" horiz-adv-x="1163" d="M123 313v344q0 98 23.5 166t57.5 105t99.5 56.5t121.5 23.5t154.5 4t155 -4t122 -23.5t99 -56.5t57 -105t23.5 -166v-344q0 -92 -22.5 -155.5t-57 -98t-99 -53t-123 -22.5t-154.5 -4q-123 0 -192 8t-137.5 39.5t-98 101.5t-29.5 184zM311 287q0 -66 14.5 -105t53.5 -56 t80 -21.5t120.5 -4.5t120.5 4.5t80 21.5t53.5 56t14.5 105v401q0 137 -55.5 170t-213 33t-213 -33t-55.5 -170v-401zM430 1133l184 260h224l-256 -260h-152z" />
<glyph unicode="&#xf4;" horiz-adv-x="1163" d="M123 313v344q0 98 23.5 166t57.5 105t99.5 56.5t121.5 23.5t154.5 4t155 -4t122 -23.5t99 -56.5t57 -105t23.5 -166v-344q0 -92 -22.5 -155.5t-57 -98t-99 -53t-123 -22.5t-154.5 -4q-123 0 -192 8t-137.5 39.5t-98 101.5t-29.5 184zM311 287q0 -66 14.5 -105t53.5 -56 t80 -21.5t120.5 -4.5t120.5 4.5t80 21.5t53.5 56t14.5 105v401q0 137 -55.5 170t-213 33t-213 -33t-55.5 -170v-401zM336 1133l139 260h219l135 -260h-118l-127 178l-129 -178h-119z" />
<glyph unicode="&#xf5;" horiz-adv-x="1163" d="M123 313v344q0 98 23.5 166t57.5 105t99.5 56.5t121.5 23.5t154.5 4t155 -4t122 -23.5t99 -56.5t57 -105t23.5 -166v-344q0 -92 -22.5 -155.5t-57 -98t-99 -53t-123 -22.5t-154.5 -4q-123 0 -192 8t-137.5 39.5t-98 101.5t-29.5 184zM311 287q0 -66 14.5 -105t53.5 -56 t80 -21.5t120.5 -4.5t120.5 4.5t80 21.5t53.5 56t14.5 105v401q0 137 -55.5 170t-213 33t-213 -33t-55.5 -170v-401zM322 1108v149q49 60 133 60q49 0 133 -35t123 -35q45 0 73.5 21.5t59.5 66.5v-141q-47 -80 -133 -80q-53 0 -135 37t-121 37q-82 0 -133 -80z" />
<glyph unicode="&#xf6;" horiz-adv-x="1163" d="M123 313v344q0 98 23.5 166t57.5 105t99.5 56.5t121.5 23.5t154.5 4t155 -4t122 -23.5t99 -56.5t57 -105t23.5 -166v-344q0 -92 -22.5 -155.5t-57 -98t-99 -53t-123 -22.5t-154.5 -4q-123 0 -192 8t-137.5 39.5t-98 101.5t-29.5 184zM311 287q0 -66 14.5 -105t53.5 -56 t80 -21.5t120.5 -4.5t120.5 4.5t80 21.5t53.5 56t14.5 105v401q0 137 -55.5 170t-213 33t-213 -33t-55.5 -170v-401zM315 1157v193h185v-193h-185zM664 1157v193h184v-193h-184z" />
<glyph unicode="&#xf7;" horiz-adv-x="1024" d="M123 578v137h778v-137h-778zM393 145v222h238v-222h-238zM393 915v222h238v-222h-238z" />
<glyph unicode="&#xf8;" horiz-adv-x="1163" d="M123 313v344q0 98 23.5 166t57.5 105t99.5 56.5t121.5 23.5t154.5 4t155 -4t122 -23.5t99 -56.5t57 -105t23.5 -166v-344q0 -92 -22.5 -155.5t-57 -98t-99 -53t-123 -22.5t-154.5 -4q-123 0 -192 8t-137.5 39.5t-98 101.5t-29.5 184zM311 287q0 -63 15 -99l438 684 q-49 18 -184 19q-158 0 -213.5 -33t-55.5 -170v-401zM397 117q49 -16 183 -17q80 0 120.5 4.5t79.5 21.5t53.5 56t14.5 105v401q0 61 -14 109z" />
<glyph unicode="&#xf9;" horiz-adv-x="1173" d="M160 264v727h184v-717q0 -37 6 -61.5t25.5 -50t65.5 -38.5t116 -13q154 0 213 28.5t59 104.5v747h185v-991h-185v121q-29 -141 -325 -141q-197 0 -270.5 70.5t-73.5 213.5zM287 1393h223l184 -260h-151z" />
<glyph unicode="&#xfa;" horiz-adv-x="1173" d="M160 264v727h184v-717q0 -37 6 -61.5t25.5 -50t65.5 -38.5t116 -13q154 0 213 28.5t59 104.5v747h185v-991h-185v121q-29 -141 -325 -141q-197 0 -270.5 70.5t-73.5 213.5zM451 1133l184 260h223l-256 -260h-151z" />
<glyph unicode="&#xfb;" horiz-adv-x="1173" d="M160 264v727h184v-717q0 -37 6 -61.5t25.5 -50t65.5 -38.5t116 -13q154 0 213 28.5t59 104.5v747h185v-991h-185v121q-29 -141 -325 -141q-197 0 -270.5 70.5t-73.5 213.5zM328 1133l139 260h219l135 -260h-119l-127 178l-129 -178h-118z" />
<glyph unicode="&#xfc;" horiz-adv-x="1173" d="M160 264v727h184v-717q0 -37 6 -61.5t25.5 -50t65.5 -38.5t116 -13q154 0 213 28.5t59 104.5v747h185v-991h-185v121q-29 -141 -325 -141q-197 0 -270.5 70.5t-73.5 213.5zM307 1157v193h185v-193h-185zM655 1157v193h185v-193h-185z" />
<glyph unicode="&#xfd;" horiz-adv-x="942" d="M12 991h201l276 -809h5l249 809h187l-498 -1417h-192l155 412zM328 1133l184 260h223l-256 -260h-151z" />
<glyph unicode="&#xfe;" horiz-adv-x="1185" d="M160 -426v1860h184v-549q23 127 338 127q199 0 290 -83t91 -198v-407q0 -90 -26.5 -156t-66.5 -101.5t-105.5 -56t-123 -25.5t-139.5 -5t-159.5 20t-98.5 63v-489h-184zM334 301q0 -125 60.5 -161t212 -36t209.5 36t58 161v365q0 137 -59 175t-211 38q-154 0 -212 -38 t-58 -175v-365z" />
<glyph unicode="&#xff;" horiz-adv-x="942" d="M12 991h201l276 -809h5l249 809h187l-498 -1417h-192l155 412zM184 1157v193h185v-193h-185zM532 1157v193h185v-193h-185z" />
<glyph unicode="&#x152;" horiz-adv-x="2015" d="M172 360v588q0 381 557 381h1163v-139h-694v-434h627v-140h-627v-477h715v-139h-1184q-557 0 -557 360zM362 365q0 -229 379 -230h258v1057h-266q-78 0 -137 -9t-115.5 -33t-87.5 -74t-31 -126v-585z" />
<glyph unicode="&#x153;" horiz-adv-x="1822" d="M123 313v344q0 98 23.5 166t57.5 105t99.5 56.5t121.5 23.5t155 4q281 0 370 -103q80 102 338 103q215 0 314.5 -75t99.5 -263v-219h-666v-150q0 -104 75 -148t226 -44q133 0 326 49v-142q-193 -41 -383 -40.5t-338 106.5q-109 -106 -362 -106q-123 0 -192 8t-137.5 39.5 t-98 101.5t-29.5 184zM311 287q0 -66 14.5 -105t53.5 -56t80 -21.5t121 -4.5q147 0 207.5 39t60.5 166v383q0 137 -55.5 170t-213 33t-213 -33t-55.5 -170v-401zM1036 575h482v156q0 90 -55.5 124t-180.5 34t-185.5 -32t-60.5 -126v-156z" />
<glyph unicode="&#x178;" horiz-adv-x="1196" d="M16 1329h228l354 -624l354 624h228l-484 -786v-543h-198v537zM328 1464v193h184v-193h-184zM676 1464v193h184v-193h-184z" />
<glyph unicode="&#x2c6;" horiz-adv-x="657" d="M82 1133l139 260h219l135 -260h-118l-127 178l-129 -178h-119z" />
<glyph unicode="&#x2dc;" horiz-adv-x="645" d="M61 1108v149q50 60 134 60q49 0 133 -35t123 -35q45 0 73.5 21.5t59.5 66.5v-141q-47 -80 -133 -80q-53 0 -135.5 37t-120.5 37q-82 0 -134 -80z" />
<glyph unicode="&#x2000;" horiz-adv-x="850" />
<glyph unicode="&#x2001;" horiz-adv-x="1700" />
<glyph unicode="&#x2002;" horiz-adv-x="850" />
<glyph unicode="&#x2003;" horiz-adv-x="1700" />
<glyph unicode="&#x2004;" horiz-adv-x="566" />
<glyph unicode="&#x2005;" horiz-adv-x="425" />
<glyph unicode="&#x2006;" horiz-adv-x="283" />
<glyph unicode="&#x2007;" horiz-adv-x="283" />
<glyph unicode="&#x2008;" horiz-adv-x="212" />
<glyph unicode="&#x2009;" horiz-adv-x="340" />
<glyph unicode="&#x200a;" horiz-adv-x="94" />
<glyph unicode="&#x2010;" horiz-adv-x="733" d="M82 512v147h569v-147h-569z" />
<glyph unicode="&#x2011;" horiz-adv-x="733" d="M82 512v147h569v-147h-569z" />
<glyph unicode="&#x2012;" horiz-adv-x="733" d="M82 512v147h569v-147h-569z" />
<glyph unicode="&#x2013;" d="M145 520v146h897v-146h-897z" />
<glyph unicode="&#x2014;" horiz-adv-x="1675" d="M82 520v146h1511v-146h-1511z" />
<glyph unicode="&#x2018;" horiz-adv-x="524" d="M92 879l193 450h118l-94 -450h-217z" />
<glyph unicode="&#x2019;" horiz-adv-x="524" d="M121 879l94 450h217l-192 -450h-119z" />
<glyph unicode="&#x201a;" horiz-adv-x="524" d="M80 -229l94 450h217l-192 -450h-119z" />
<glyph unicode="&#x201c;" horiz-adv-x="907" d="M131 879l195 450h118l-94 -450h-219zM516 879l195 450h118l-94 -450h-219z" />
<glyph unicode="&#x201d;" horiz-adv-x="907" d="M80 879l94 450h217l-192 -450h-119zM463 879l94 450h219l-194 -450h-119z" />
<glyph unicode="&#x201e;" horiz-adv-x="907" d="M80 -229l94 450h217l-192 -450h-119zM463 -229l94 450h219l-194 -450h-119z" />
<glyph unicode="&#x2022;" horiz-adv-x="980" d="M164 592q0 135 95 230.5t230 95.5q137 0 232.5 -95.5t95.5 -230.5t-95 -231.5t-230 -96.5q-137 0 -232.5 96.5t-95.5 231.5z" />
<glyph unicode="&#x2026;" horiz-adv-x="1449" d="M143 0v221h238v-221h-238zM606 0v221h238v-221h-238zM1069 0v221h238v-221h-238z" />
<glyph unicode="&#x202f;" horiz-adv-x="340" />
<glyph unicode="&#x2039;" horiz-adv-x="524" d="M82 537l205 393h155l-188 -393l188 -394h-155z" />
<glyph unicode="&#x203a;" horiz-adv-x="524" d="M82 143l188 394l-188 393h156l204 -393l-204 -394h-156z" />
<glyph unicode="&#x205f;" horiz-adv-x="425" />
<glyph unicode="&#x20ac;" d="M53 436v146h191v145h-191v145h191v58q0 381 559 381q162 0 289 -25l-37 -137q-143 25 -248 25q-61 0 -110.5 -5.5t-101.5 -20.5t-87 -41t-56.5 -70t-21.5 -105v-60h557l-39 -145h-518v-145h457l-39 -146h-418v-86q0 -229 385 -229q152 0 320 39v-152q-160 -29 -332 -28 q-559 0 -559 360v96h-191z" />
<glyph unicode="&#x2122;" horiz-adv-x="1284" d="M16 1235v94h484v-94h-178v-449h-125v449h-181zM567 786v543h164l158 -393l149 393h158v-543h-115v365l-143 -365h-104l-150 369v-369h-117z" />
<glyph unicode="&#x25fc;" horiz-adv-x="993" d="M0 0v993h993v-993h-993z" />
<glyph unicode="&#xfb01;" horiz-adv-x="1261" d="M20 870v121h228v160q0 172 75.5 237.5t251.5 65.5q121 0 207 -10v-119q-72 10 -139 10q-127 0 -169 -33.5t-42 -138.5v-172h350v-121h-350v-870h-184v870h-228zM918 0v991h184v-991h-184zM918 1233v201h184v-201h-184z" />
<glyph unicode="&#xfb02;" horiz-adv-x="1261" d="M20 870v121h228v160q0 172 75.5 237.5t251.5 65.5q121 0 207 -10v-119q-72 10 -139 10q-127 0 -169 -33.5t-42 -138.5v-172h350v-121h-350v-870h-184v870h-228zM918 0v1434h184v-1434h-184z" />
<glyph unicode="&#xfb03;" horiz-adv-x="1931" d="M20 870v121h228v160q0 172 75.5 237.5t251.5 65.5q121 0 207 -10v-119q-72 10 -139 10q-127 0 -169 -33.5t-42 -138.5v-172h486v160q0 172 75.5 237.5t251.5 65.5q121 0 207 -10v-119q-72 10 -139 10q-127 0 -169 -33.5t-42 -138.5v-172h350v-121h-350v-870h-184v870 h-486v-870h-184v870h-228zM1587 0v991h185v-991h-185zM1587 1239v195h185v-195h-185z" />
<glyph unicode="&#xfb04;" horiz-adv-x="1931" d="M20 870v121h228v160q0 172 75.5 237.5t251.5 65.5q121 0 207 -10v-119q-72 10 -139 10q-127 0 -169 -33.5t-42 -138.5v-172h486v160q0 172 75.5 237.5t251.5 65.5q121 0 207 -10v-119q-72 10 -139 10q-127 0 -169 -33.5t-42 -138.5v-172h350v-121h-350v-870h-184v870 h-486v-870h-184v870h-228zM1587 0v1434h185v-1434h-185z" />
</font>
</defs>
</svg>
